<?xml version="1.0" standalone="no"?>
<!DOCTYPE svg PUBLIC "-//W3C//DTD SVG 1.1//EN" "http://www.w3.org/Graphics/SVG/1.1/DTD/svg11.dtd">
<svg xmlns="http://www.w3.org/2000/svg">
<defs >
<font id="Raleway" horiz-adv-x="550" ><font-face
    font-family="Raleway Thin Thin"
    units-per-em="1000"
    panose-1="0 0 0 0 0 0 0 0 0 0"
    ascent="940"
    descent="-234"
    alphabetic="0" />
<glyph unicode=" " horiz-adv-x="255" />
<glyph unicode="!" horiz-adv-x="224" d="M81 200L190 717H210L101 200H81ZM38 0L56 84H81L58 0H38Z" />
<glyph unicode="&quot;" horiz-adv-x="212" d="M127 570L157 710H177L147 570H127ZM175 570L205 710H225L195 570H175Z" />
<glyph unicode="#" horiz-adv-x="623" d="M623 481H511L405 241H534L530 221H396L299 0H278L376 221H149L52 0H31L129 221H22L26 241H139L244 481H115L120 501H254L346 710H367L273 501H500L593 710H614L520 501H627L623 481ZM385 241L491 481H264L158 241H385Z" />
<glyph unicode="$" horiz-adv-x="589" d="M225 0H244L225 -93H205L225 0ZM226 5L375 706L395 708L245 4L226 5ZM398 815H418L394 704L374 702L398 815ZM561 616Q546 639 529 654T492 679T447 692T392 696Q300 696 243 669T160 597T134 495Q134 457 154 434T214
395T316 365Q379 351 426 333T499 286T525 208Q525 158 505 119T448 52T360 10T245 -5Q164 -5 106 22T6 105L23 118Q43 90 66 70T118 37T178 18T250 12Q366 12 435 60T504 203Q504 244 483 270T420 314T312 346Q249 359 205 375T137 418T113 491Q113 543 133 584T191
655T280 699T394 715Q437 715 471 707T531 680T577 630L561 616Z" />
<glyph unicode="%" horiz-adv-x="644" d="M210 444Q163 444 134 477T105 557Q105 601 128 638T190 697T269 720Q316 720 345 687T374 607Q374 564 350 527T289 467T210 444ZM214 464Q250 464 282 484T334 536T354 603Q354 644 328 672T264 700Q229 700 197 680T145
629T125 561Q125 520 150 492T214 464ZM398 -10Q352 -10 323 22T293 103Q293 147 317 184T378 243T457 266Q504 266 533 233T562 153Q562 109 539 72T478 13T398 -10ZM402 10Q438 10 470 29T522 81T542 148Q542 189 517 217T453 246Q418 246 386 226T333 174T313
106Q313 66 337 38T402 10ZM-13 11L313 347L666 711L679 699L325 334L0 -1L-13 11Z" />
<glyph unicode="&amp;" horiz-adv-x="668" d="M188 -10Q139 -10 101 11T42 69T20 156Q20 191 31 224T69 290T137 353T239 418L252 403Q179 363 133 324T64 244T42 158Q42 93 83 52T191 11Q248 11 303 42T405 128T486 257T536 416H558Q541 326 505 249T418 113T309
23T188 -10ZM254 367Q221 416 201 449T173 507T164 554Q164 598 191 635T264 696T360 719Q396 719 426 707T481 671T519 614L505 602Q486 649 447 675T357 701Q312 701 273 681T209 627T184 555Q184 537 190 517T211 471T246 415L536 0H507L254 367ZM546 416H656L652
396H542L546 416Z" />
<glyph unicode="&apos;" horiz-adv-x="163" d="M127 569L157 710H177L147 569H127Z" />
<glyph unicode="(" horiz-adv-x="228" d="M49 256Q49 346 79 424T159 576T268 726L281 714Q246 673 209 620T140 507T89 385T69 264Q69 223 75 174T94 77T126 -14L108 -26Q89 18 76 66T56 163T49 256Z" />
<glyph unicode=")" horiz-adv-x="228" d="M198 433Q198 374 184 318T141 205T73 91T-19 -26L-32 -14Q31 57 78 131T151 279T177 424Q177 473 170 527T151 630T123 714L141 726Q165 659 181 583T198 433Z" />
<glyph unicode="*" horiz-adv-x="293" d="M144 564L195 621L136 643L146 662L205 640L220 710H239L224 640L294 662V643L226 621L254 564L235 552L208 609L157 552L144 564Z" />
<glyph unicode="+" horiz-adv-x="410" d="M365 365V345H225V195H205V345H65V365H205V515H225V365H365Z" />
<glyph unicode="," horiz-adv-x="207" d="M32 -81L57 -10H48L64 64H90L74 -10L46 -81H32Z" />
<glyph unicode="-" horiz-adv-x="404" d="M59 261L63 281H332L328 261H59Z" />
<glyph unicode="." horiz-adv-x="159" d="M8 0L22 64H41L28 0H8Z" />
<glyph unicode="/" horiz-adv-x="531" d="M583 710L-1 0H-26L558 710H583Z" />
<glyph unicode="0" horiz-adv-x="587" d="M227 -10Q172 -10 132 19T71 101T49 220Q49 298 74 366T142 486T240 567T356 597Q412 597 452 568T513 486T535 367Q535 289 510 221T442 101T344 20T227 -10ZM232 10Q289 10 340 37T431 113T492 226T515 366Q515 460
472 518T352 577Q295 577 244 550T153 473T92 360T69 220Q69 126 112 68T232 10Z" />
<glyph unicode="1" horiz-adv-x="353" d="M6 20H141L251 538Q241 526 220 512T173 484T122 461T76 452L81 476Q107 476 137 490T194 522T239 555T258 571H278L161 20H282L278 0H2L6 20Z" />
<glyph unicode="2" horiz-adv-x="477" d="M-7 0Q-3 18 8 51T43 124T107 201T211 263Q271 287 312 307T379 348T416 394T428 453Q428 480 415 504T374 545T300 561Q264 561 234 550T179 523T140 493T119 474L106 486Q106 486 121 500T163 534T226 567T304 581Q354
581 386 563T433 517T449 456Q449 417 436 389T396 339T324 294T215 244Q161 222 125 190T65 123T31 62T17 20H369L364 0H-7Z" />
<glyph unicode="3" horiz-adv-x="490" d="M146 -147Q76 -147 30 -112T-25 -19L-5 -12Q0 -64 43 -95T152 -127Q216 -127 266 -100T346 -23T375 88Q375 152 336 189T222 227H201L205 247H227Q292 247 338 268T409 329T434 422Q434 482 396 519T295 556Q235 556 183
525T101 443L85 450Q106 488 139 516T214 560T299 576Q370 576 412 534T455 427Q455 378 432 337T370 270T279 236Q334 228 364 187T394 87Q394 20 361 -33T271 -116T146 -147Z" />
<glyph unicode="4" horiz-adv-x="499" d="M319 72H-27L-23 89L431 571H445L343 92H427L423 72H339L297 -127H277L319 72ZM323 92L417 534L5 92H323Z" />
<glyph unicode="5" horiz-adv-x="522" d="M159 -149Q88 -149 40 -109T-23 -3H-2Q12 -59 56 -94T163 -129Q211 -129 256 -110T338 -57T396 22T417 121Q417 194 372 240T256 286Q203 286 149 261T54 188H30Q35 200 48 232T79 308T115 397T150 482T176 546T186 571H506L502
551H198L68 226Q110 265 160 285T261 306Q313 306 352 283T414 219T437 124Q437 64 413 15T349 -72T260 -129T159 -149Z" />
<glyph unicode="6" horiz-adv-x="581" d="M237 -10Q293 -10 345 12T438 75T503 166T528 276Q528 332 505 377T441 448T344 475Q290 475 238 455T144 398T77 308Q98 422 143 509T252 646T389 695Q451 695 491 658T537 561L557 568Q551 636 507 675T393 715Q317
715 254 672T145 556T74 391T49 202Q49 104 101 47T237 -10ZM243 10Q193 10 154 34T93 101T71 194Q71 245 93 292T154 376T239 434T336 455Q386 455 424 430T485 363T507 270Q507 218 485 171T425 88T340 31T243 10Z" />
<glyph unicode="7" horiz-adv-x="510" d="M503 563H99L103 583H541L44 -127H21L503 563Z" />
<glyph unicode="8" horiz-adv-x="557" d="M210 -7Q151 -7 110 16T47 77T25 159Q25 217 56 262T133 338T225 381Q183 398 154 432T125 515Q125 562 146 598T203 659T281 697T366 710Q410 710 448 694T510 646T534 569Q534 521 510 484T447 422T365 381Q418 364
451 322T485 220Q485 169 462 128T399 56T310 9T210 -7ZM218 10Q259 10 302 25T382 67T442 133T465 219Q465 267 440 301T375 353T292 371Q251 371 208 356T128 313T68 247T45 161Q45 113 70 80T136 28T218 10ZM297 391Q332 391 369 402T440 436T493 491T514 565Q514
605 493 632T436 675T360 690Q309 690 260 669T178 609T145 517Q145 477 167 449T225 406T297 391Z" />
<glyph unicode="9" horiz-adv-x="565" d="M173 -156Q250 -156 313 -113T421 3T492 168T517 357Q517 455 465 512T329 569Q274 569 222 547T128 484T63 393T38 283Q38 228 61 183T125 111T222 84Q276 84 328 104T422 161T489 251Q468 137 423 50T314 -86T177 -136Q116
-136 75 -99T29 -2L9 -9Q15 -76 59 -116T173 -156ZM230 104Q180 104 142 129T81 196T59 289Q59 341 81 388T141 471T226 528T323 549Q374 549 412 524T473 458T495 365Q495 314 473 267T412 183T327 125T230 104Z" />
<glyph unicode=":" horiz-adv-x="155" d="M99 453L113 517H133L119 453H99ZM3 0L17 64H36L23 0H3Z" />
<glyph unicode=";" horiz-adv-x="161" d="M102 453L116 517H136L122 453H102ZM-14 -81L11 -10H2L18 64H43L27 -10L0 -81H-14Z" />
<glyph unicode="&lt;" horiz-adv-x="541" d="M31 268L448 517V495L60 259L448 22V0L31 250V268Z" />
<glyph unicode="=" horiz-adv-x="453" d="M74 231V251H367V231H74ZM74 301V321H367V301H74Z" />
<glyph unicode="&gt;" horiz-adv-x="541" d="M492 250L75 0V22L463 259L75 495V517L492 268V250Z" />
<glyph unicode="?" horiz-adv-x="449" d="M142 179Q156 243 174 279T214 334T263 366Q293 381 324 394T383 428T426 483T443 572Q443 637 405 668T316 699Q278 699 240 685T168 644T110 582L94 590Q121 632 158 660T238 704T319 719Q359 719 391 703T443 653T463
572Q463 514 446 478T400 419T337 380T268 347Q245 336 226 320T191 271T162 179H142ZM104 0L122 84H142L124 0H104Z" />
<glyph unicode="@" horiz-adv-x="791" d="M540 4Q572 4 602 29T655 97T693 192T707 300Q707 363 688 415T633 504T551 562T446 583Q370 583 299 548T170 453T80 316T46 158Q46 77 79 13T172 -89T308 -126Q344 -126 381 -117T456 -88L462 -106Q421 -125 378 -135T297
-146Q219 -146 158 -106T61 3T26 157Q26 226 49 291T114 413T208 512T323 579T449 603Q508 603 559 582T647 521T706 426T727 303Q727 256 717 210T689 123T645 51T591 2T530 -16Q503 -16 491 -2T479 44Q479 52 480 63T483 84Q449 51 405 32T320 12Q278 12 246
33T196 94T178 184Q178 237 197 284T249 369T324 427T414 449Q461 449 495 427T545 362L563 450H583L508 99Q504 77 503 65T501 47Q501 25 511 15T540 4ZM325 32Q359 32 394 46T457 85T497 139L537 334Q524 378 491 403T411 428Q369 428 331 409T263 355T216 278T198
186Q198 142 213 107T258 52T325 32Z" />
<glyph unicode="A" horiz-adv-x="647" d="M406 710H424L566 0H544L493 254H142L-17 0H-39L406 710ZM489 274L409 681L154 274H489Z" />
<glyph unicode="B" horiz-adv-x="628" d="M184 710H483Q523 710 549 689T589 635T603 565Q603 522 585 482T536 412T466 364Q510 349 534 309T558 218Q558 175 540 136T491 67T423 18T346 0H33L184 710ZM350 20Q385 20 418 36T478 81T521 144T537 215Q537 251
524 281T486 329T426 348H127L57 20H350ZM404 368Q439 368 471 385T528 430T568 492T583 562Q583 614 556 652T478 690H200L131 368H404Z" />
<glyph unicode="C" horiz-adv-x="663" d="M307 -6Q246 -6 199 19T119 86T69 180T52 288Q52 348 71 408T126 524T211 621T322 689T452 714Q544 714 597 671T667 559L647 553Q632 605 603 636T535 680T451 694Q371 694 302 658T182 561T101 429T72 284Q72 213 100
151T182 52T310 14Q354 14 402 29T496 78T580 164L598 159Q564 105 515 68T412 13T307 -6Z" />
<glyph unicode="D" horiz-adv-x="684" d="M184 710H401Q488 710 543 674T626 577T653 440Q653 346 623 266T539 126T411 33T250 0H33L184 710ZM254 20Q343 20 413 53T532 145T607 278T633 435Q633 510 607 567T528 657T397 690H200L57 20H254Z" />
<glyph unicode="E" horiz-adv-x="588" d="M184 710H618L614 690H200L132 373H495L491 353H128L57 20H480L476 0H33L184 710Z" />
<glyph unicode="F" horiz-adv-x="588" d="M184 710H618L614 690H200L133 374H486L482 354H128L53 0H33L184 710Z" />
<glyph unicode="G" horiz-adv-x="688" d="M301 -5Q240 -5 193 20T115 87T68 183T52 293Q52 374 82 449T167 585T293 680T451 715Q546 715 599 672T668 560L648 554Q627 625 578 660T451 695Q369 695 300 661T179 568T100 438T72 293Q72 219 101 156T183 54T310
15Q376 15 446 51T592 166L586 136Q517 66 444 31T301 -5ZM613 318H455L459 338H637L565 0H545L613 318Z" />
<glyph unicode="H" horiz-adv-x="701" d="M184 710H204L132 373H599L671 710H691L540 0H520L595 353H128L53 0H33L184 710Z" />
<glyph unicode="I" horiz-adv-x="214" d="M184 709H204L53 0H33L184 709Z" />
<glyph unicode="J" horiz-adv-x="458" d="M110 -11Q61 -11 29 1T-32 33L-18 49Q5 31 37 19T114 7Q174 7 214 31T280 99T325 207T361 349L438 709H458L381 349Q363 264 344 198T296 85T223 14T110 -11Z" />
<glyph unicode="K" horiz-adv-x="591" d="M184 709H204L106 249L632 710H661L307 400L523 0H499L291 387L100 221L53 0H33L184 709Z" />
<glyph unicode="L" horiz-adv-x="552" d="M184 710H204L57 20H480L476 0H33L184 710Z" />
<glyph unicode="M" horiz-adv-x="846" d="M184 710H200L394 164L820 710H836L685 0H665L806 666L397 140H381L195 666L53 0H33L184 710Z" />
<glyph unicode="N" horiz-adv-x="743" d="M184 710H199L569 29L713 709H733L582 0H560L196 671L53 0H33L184 710Z" />
<glyph unicode="O" horiz-adv-x="726" d="M305 -5Q238 -5 190 19T112 84T67 176T52 284Q52 353 72 417T128 535T214 630T321 692T443 715Q510 715 558 691T637 625T682 532T697 424Q697 355 677 292T621 174T535 80T427 18T305 -5ZM308 15Q386 15 453 49T571 142T649
273T677 424Q677 495 653 557T576 657T441 695Q363 695 296 661T179 569T100 437T72 285Q72 214 96 153T173 53T308 15Z" />
<glyph unicode="P" horiz-adv-x="595" d="M184 710H452Q502 710 537 685T590 619T608 534Q608 488 590 443T539 360T464 301T374 279H112L53 0H33L184 710ZM378 299Q422 299 460 320T527 377T572 453T588 536Q588 577 572 612T525 668T454 690H200L117 299H378Z" />
<glyph unicode="Q" horiz-adv-x="725" d="M305 -5Q238 -5 190 19T112 84T67 176T52 284Q52 353 72 417T128 535T214 630T321 692T443 715Q510 715 558 691T637 625T682 532T697 424Q697 355 677 292T621 174T535 80T427 18T305 -5ZM554 0L452 186H477L579 0H554ZM308
15Q386 15 453 49T571 142T649 273T677 424Q677 495 653 557T576 657T441 695Q363 695 296 661T179 569T100 437T72 285Q72 214 96 153T173 53T308 15Z" />
<glyph unicode="R" horiz-adv-x="616" d="M33 0L184 710H459Q506 710 539 685T590 619T608 533Q608 487 591 444T542 364T471 305T386 279L497 0H473L362 279H112L53 0H33ZM378 299Q422 299 460 319T527 374T572 449T588 530Q588 573 572 609T525 667T454 690H200L117
299H378Z" />
<glyph unicode="S" horiz-adv-x="579" d="M244 -5Q160 -5 104 21T-1 105L15 118Q36 93 59 74T111 41T172 20T248 13Q323 13 379 35T466 99T497 199Q497 246 476 272T413 314T305 346Q241 362 197 376T129 417T106 496Q106 545 125 585T181 654T267 699T378 715Q423
715 458 706T521 678T570 630L554 616Q538 638 520 653T481 678T435 692T380 696Q298 696 242 669T156 597T127 498Q127 455 146 432T206 395T309 365Q380 347 426 330T495 283T518 201Q518 149 498 110T440 46T353 8T244 -5Z" />
<glyph unicode="T" horiz-adv-x="574" d="M356 690H98L102 710H638L634 690H376L229 0H209L356 690Z" />
<glyph unicode="U" horiz-adv-x="723" d="M298 -5Q217 -5 170 26T103 110T83 225Q83 257 87 289T98 355L173 710H193L118 355Q111 323 107 292T103 228Q103 169 120 121T181 44T298 15Q374 15 431 44T527 123T592 233T630 355L705 710H725L650 355Q635 283 607
218T537 103T435 24T298 -5Z" />
<glyph unicode="V" horiz-adv-x="644" d="M101 710H122L260 25L687 710H709L265 0H243L101 710Z" />
<glyph unicode="W" horiz-adv-x="986" d="M101 710H123L260 25L502 414L443 704H465L517 438L684 704H706L523 414L602 25L1029 710H1051L607 0H585L508 389L265 0H243L101 710Z" />
<glyph unicode="X" horiz-adv-x="588" d="M292 350L96 710H122L308 366L641 710H666L317 350L507 0H482L302 334L-21 0H-47L292 350Z" />
<glyph unicode="Y" horiz-adv-x="594" d="M277 277L97 710H120L292 298L640 710H663L297 275L238 0H218L277 277Z" />
<glyph unicode="Z" horiz-adv-x="587" d="M-36 20L620 690H111L116 710H650L645 690L-11 20H499L495 0H-40L-36 20Z" />
<glyph unicode="[" horiz-adv-x="216" d="M23 -40L189 740H256L252 720H204L47 -20H95L91 -40H23Z" />
<glyph unicode="\" horiz-adv-x="480" d="M130 710L392 0H367L104 710H130Z" />
<glyph unicode="]" horiz-adv-x="215" d="M-20 -40L-16 -20H32L189 720H142L146 740H213L48 -40H-20Z" />
<glyph unicode="^" horiz-adv-x="505" d="M55 303L253 710H271L468 303H445L262 681L76 303H55Z" />
<glyph unicode="_" horiz-adv-x="513" d="M-1 -20L3 0H376L372 -20H-1Z" />
<glyph unicode="`" horiz-adv-x="194" d="M150 730H182L226 656L210 645L150 730Z" />
<glyph unicode="a" horiz-adv-x="580" d="M216 -10Q159 -10 118 21T54 103T31 210Q31 270 55 326T120 428T213 500T321 527Q391 527 434 489T497 398L523 519H544L442 44Q441 42 441 39T440 32Q440 20 452 20L448 0Q446 0 444 0T439 1Q429 4 425 11T420 29Q420
32 421 37T425 57T435 108Q393 56 334 23T216 -10ZM218 10Q250 10 286 23T356 58T414 109T448 169L488 356Q483 396 461 430T402 485T318 507Q266 507 218 481T133 411T73 316T51 210Q51 157 73 112T132 38T218 10Z" />
<glyph unicode="b" horiz-adv-x="576" d="M231 -10Q165 -10 122 26T60 108L37 0H17L172 730H192L122 398Q172 454 228 490T349 527Q410 527 450 495T509 414T529 313Q529 250 504 193T436 89T340 17T231 -10ZM233 10Q286 10 335 35T424 104T485 201T508 312Q508
363 489 407T433 479T342 507Q297 507 257 487T182 435T114 366L68 141Q75 101 98 72T157 26T233 10Z" />
<glyph unicode="c" horiz-adv-x="514" d="M219 -10Q163 -10 121 19T55 99T31 210Q31 275 56 332T123 433T220 502T332 527Q394 527 437 497T493 411L471 404Q458 452 422 479T335 507Q281 507 230 484T139 420T75 326T51 214Q51 158 72 112T132 38T220 10Q259
10 299 25T371 66T417 119L436 113Q418 78 383 50T305 6T219 -10Z" />
<glyph unicode="d" horiz-adv-x="579" d="M218 -10Q159 -10 117 21T53 103T31 211Q31 271 55 327T120 428T213 500T323 527Q391 527 434 489T497 398L567 730H588L441 43Q440 40 440 38T440 33Q440 20 452 20L448 0Q444 0 441 0T436 2Q428 5 424 12T420 30Q420
32 420 36T424 57T435 108Q393 56 334 23T218 -10ZM222 10Q251 10 286 22T355 57T414 108T448 169L488 356Q483 398 458 432T396 486T319 507Q264 507 216 481T130 412T72 317T51 213Q51 159 72 113T132 38T222 10Z" />
<glyph unicode="e" horiz-adv-x="527" d="M230 -10Q171 -10 128 20T60 100T34 210Q32 269 52 325T110 427T200 500T315 527Q360 527 397 512T458 465T482 385Q485 306 421 277T225 248Q184 248 141 249T43 255L51 274Q107 271 148 270T228 268Q317 268 368 280T441
318T461 383Q460 428 437 455T380 494T311 507Q256 507 209 481T126 413T73 321T55 221Q57 161 78 113T140 38T237 10Q305 10 353 42T430 128L451 122Q430 82 399 53T325 7T230 -10Z" />
<glyph unicode="f" horiz-adv-x="292" d="M139 499H68L72 519H144L148 540Q161 603 186 648T245 716T321 740Q348 740 371 731T404 706L386 694Q377 706 359 713T318 721Q264 721 225 675T168 540L164 519H310L306 499H159L8 -213H-12L139 499Z" />
<glyph unicode="g" horiz-adv-x="576" d="M166 -223Q84 -223 39 -189T-22 -99L-2 -93Q18 -151 60 -177T170 -203Q224 -203 273 -183T357 -122T406 -22L434 108Q392 56 332 23T216 -10Q158 -10 116 21T52 103T30 211Q30 269 53 325T118 426T211 499T322 527Q389
527 430 489T496 398L522 519H541L426 -22Q412 -90 372 -135T277 -201T166 -223ZM221 10Q256 10 292 24T360 61T416 113T447 169L487 356Q481 400 457 434T396 487T318 507Q261 507 212 480T127 409T71 314T50 213Q50 159 71 113T130 38T221 10Z" />
<glyph unicode="h" horiz-adv-x="540" d="M172 730H192L119 385Q163 450 227 488T356 527Q395 527 421 512T460 465T474 388Q474 367 471 342T462 289L401 0H381L442 289Q447 316 450 340T454 384Q454 445 428 476T352 507Q306 507 259 484T171 420T107 328L37
0H17L172 730Z" />
<glyph unicode="i" horiz-adv-x="182" d="M127 519H147L37 0H17L127 519ZM172 730H192L176 653H156L172 730Z" />
<glyph unicode="j" horiz-adv-x="190" d="M-118 -170Q-146 -170 -169 -163T-206 -136L-188 -124Q-174 -140 -154 -145T-115 -150Q-89 -150 -61 -135T-12 -94T17 -36L135 519H155L37 -36Q29 -75 3 -105T-55 -152T-118 -170ZM180 730H200L184 653H164L180 730Z" />
<glyph unicode="k" horiz-adv-x="521" d="M257 255Q370 277 429 320T489 423Q489 465 461 488T382 512Q336 512 288 488T189 412T81 281L99 325Q144 394 191 439T288 508T385 531Q444 531 477 504T511 426Q511 360 450 311T285 242L405 0H381L257 255ZM172 730H192L37
0H17L172 730Z" />
<glyph unicode="l" horiz-adv-x="224" d="M96 -5Q68 -5 52 11T36 56Q36 61 36 66T38 77L177 730H197L58 77Q57 73 57 69T56 61Q56 14 108 14Q119 14 134 16T162 23L165 7Q152 3 131 -1T96 -5Z" />
<glyph unicode="m" horiz-adv-x="866" d="M127 519H147L119 385Q166 453 224 490T340 527Q381 527 408 509T449 455T457 370Q482 421 520 456T602 509T688 527Q726 527 751 513T788 469T801 396Q801 374 798 347T788 289L727 0H707L768 289Q780 348 780 390Q780
449 756 478T682 507Q637 507 593 485T513 422T451 327L382 0H362L423 289Q430 320 433 346T436 393Q436 451 413 479T339 507Q270 507 208 458T107 328L37 0H17L127 519Z" />
<glyph unicode="n" horiz-adv-x="540" d="M127 519H147L119 385Q148 427 189 459T276 509T366 527Q403 527 427 514T464 472T476 401Q476 377 473 349T462 289L401 0H381L442 289Q449 321 452 347T455 396Q455 453 432 480T362 507Q315 507 266 484T174 420T107
328L37 0H17L127 519Z" />
<glyph unicode="o" horiz-adv-x="561" d="M219 -10Q156 -10 114 19T51 97T30 205Q30 273 54 331T121 434T216 502T325 527Q388 527 429 498T492 419T513 310Q513 243 489 185T424 83T329 15T219 -10ZM222 10Q274 10 322 32T409 95T470 190T493 306Q493 361 474
406T417 479T321 507Q269 507 221 484T134 420T73 325T50 208Q50 153 69 108T126 37T222 10Z" />
<glyph unicode="p" horiz-adv-x="577" d="M128 519H147L124 409Q166 461 226 494T342 527Q401 527 442 496T506 414T528 306Q528 247 505 191T442 89T349 17T236 -10Q171 -10 127 28T63 119L-8 -213H-28L128 519ZM240 10Q295 10 343 36T429 105T487 200T508 304Q508
358 487 404T428 479T337 507Q309 507 274 494T204 459T145 408T111 348L71 161Q80 119 103 85T162 31T240 10Z" />
<glyph unicode="q" horiz-adv-x="576" d="M436 119Q381 56 324 23T208 -10Q150 -10 110 20T50 100T29 205Q29 267 54 325T123 428T220 500T331 527Q389 527 434 493T498 409L521 519H541L386 -213H366L436 119ZM212 10Q259 10 302 31T381 87T445 161L490 365Q486
401 465 433T409 486T327 507Q272 507 222 481T133 412T72 316T49 208Q49 155 68 110T124 37T212 10Z" />
<glyph unicode="r" horiz-adv-x="317" d="M127 519H147L119 385Q160 446 213 479T320 518Q325 519 330 519T339 519L335 499Q265 496 204 451T107 328L37 0H17L127 519Z" />
<glyph unicode="s" horiz-adv-x="450" d="M159 -10Q103 -10 60 10T-12 74L5 87Q35 48 73 29T163 10Q218 10 261 28T330 78T356 155Q356 199 317 219T208 257Q165 268 135 279T88 307T72 356Q72 414 101 452T178 508T281 527Q341 527 378 506T426 452L407 444Q396
475 358 491T273 507Q232 507 190 492T121 446T93 362Q93 324 123 309T213 277Q263 264 299 251T356 218T377 162Q377 106 349 68T271 10T159 -10Z" />
<glyph unicode="t" horiz-adv-x="281" d="M48 58Q48 62 48 66T50 75L140 499H69L73 519H145L183 700H203L165 519H283L279 499H160L80 126Q74 98 72 86T69 66Q69 41 85 28T124 15Q146 15 164 21T195 33T209 40L216 24Q216 24 203 17T167 2T119 -5Q88 -5 68 12T48 58Z" />
<glyph unicode="u" horiz-adv-x="551" d="M167 -10Q47 -10 47 129Q47 151 50 175T59 228L121 519H141L79 228Q67 173 67 131Q67 10 172 10Q220 10 268 33T357 96T424 189L494 519H514L418 67Q416 56 414 46T411 34Q411 20 424 20L419 0Q415 0 412 0T407 2Q400
5 396 12T392 29Q392 31 393 36T398 63T412 132Q366 67 300 29T167 -10Z" />
<glyph unicode="v" horiz-adv-x="451" d="M64 519H85L163 28Q213 84 254 146T328 273T387 401T431 519H451Q411 389 343 256T165 0H147L64 519Z" />
<glyph unicode="w" horiz-adv-x="723" d="M61 519H82L170 28Q228 90 275 162T359 306L321 519H342L374 337Q397 385 415 431T448 519H468Q451 466 429 412T380 303L430 28Q471 72 507 121T573 222T628 325T673 425T708 519H728Q686 389 616 256T432 0H414L365
273Q328 203 280 134T172 0H154L61 519Z" />
<glyph unicode="x" horiz-adv-x="456" d="M206 258L64 519H90L217 285L222 273L230 281L459 519H485L232 258L373 0H347L221 232L216 244L206 234L-18 0H-44L206 258Z" />
<glyph unicode="y" horiz-adv-x="446" d="M-37 -207Q4 -199 29 -183T77 -139T130 -63L171 0L52 519H74L186 25L244 117Q291 192 323 247T378 347T416 433T445 519H466Q453 471 438 429T400 342T343 240T259 103L177 -26Q141 -82 115 -118T67 -176T20 -208T-35
-224L-37 -207Z" />
<glyph unicode="z" horiz-adv-x="457" d="M-32 20L445 499H75L79 519H474L470 499L-6 20H365L360 0H-36L-32 20Z" />
<glyph unicode="{" horiz-adv-x="217" d="M204 720L139 416Q138 411 132 393T107 360Q113 353 115 344T117 326Q117 319 116 313T115 304L48 -11H101L96 -31H46Q40 -31 35 -27T30 -12Q30 -10 30 -7T31 -1L96 304Q97 308 97 312T98 321Q98 332 94 341T77 351L81
371Q95 371 102 380T114 401T119 416L182 710Q186 730 196 735T210 740H260L256 720H204Z" />
<glyph unicode="|" horiz-adv-x="254" d="M122 -130V775H142V-130H122Z" />
<glyph unicode="}" horiz-adv-x="218" d="M140 720L144 740H194Q197 740 204 737T211 719Q211 713 210 710L147 416Q146 414 146 409T145 399Q145 389 149 380T166 371L162 351Q145 349 136 334T123 304L59 -1Q55 -17 47 -24T30 -31H-20L-16 -11H36L103 304Q104
309 111 328T135 360Q129 368 127 377T125 394Q125 402 125 408T127 416L192 720H140Z" />
<glyph unicode="~" horiz-adv-x="442" d="M56 251Q56 253 60 265T75 293T102 320T140 332Q167 332 191 317T239 287T289 271Q313 271 328 283T351 309T359 325L379 324Q379 324 375 313T360 288T332 262T289 251Q258 251 232 266T184 297T140 312Q120 312 106
297T84 267T76 251H56Z" />
<glyph unicode="&#xa0;" horiz-adv-x="255" />
<glyph unicode="&#xa1;" horiz-adv-x="224" d="M168 517L58 0H38L148 517H168ZM210 717L193 633H168L190 717H210Z" />
<glyph unicode="&#xa2;" horiz-adv-x="522" d="M175 -120L199 -9Q146 -4 108 28T51 108T31 210Q31 267 53 322T115 422T205 495T313 527L338 645H357L332 527Q406 525 442 493T492 411L471 404Q455 456 418 480T328 507L222 10Q253 10 292 23T367 61T417 119L436
113Q415 73 377 46T297 4T218 -10L194 -120H175ZM51 212Q51 161 69 117T122 45T203 11L308 507Q253 504 206 476T124 405T70 311T51 212Z" />
<glyph unicode="&#xa3;" horiz-adv-x="446" d="M64 366H356L351 346H60L64 366ZM-4 10Q59 67 96 105T151 172T174 225T180 283Q180 330 168 369T142 444T129 520Q129 559 145 594T190 656T252 699T323 715Q370 715 405 687T455 610L436 598Q423 643 391 669T317
695Q276 695 238 672T176 610T151 525Q151 487 163 450T188 374T201 286Q201 255 196 228T174 172T124 106T36 18Q52 21 70 23T105 25Q134 25 155 20T197 10T241 5Q261 5 284 10T339 26L341 7Q313 -4 287 -9T236 -15Q208 -15 187 -10T144 0T94 5Q74 5 49 2T2 -7L-4
10Z" />
<glyph unicode="&#xa4;" horiz-adv-x="551" d="M160 467Q183 490 214 502T279 515Q315 515 346 502T401 465L471 534L486 520L415 450Q434 426 445 397T456 335Q456 303 445 273T413 219L486 148L471 134L399 205Q375 183 345 170T279 157Q245 157 215 169T162
202L93 134L78 148L148 217Q104 267 104 335Q104 368 115 398T146 452L78 520L93 534L160 467ZM125 334Q125 290 146 254T202 197T279 175Q322 175 357 197T413 256T435 336Q435 381 414 417T357 474T279 496Q238 496 203 475T146 416T125 334Z" />
<glyph unicode="&#xa5;" horiz-adv-x="627" d="M368 341H456L452 321H351L312 275L307 251H437L433 231H303L253 0H233L283 231H153L157 251H287L292 277L274 321H172L177 341H266L112 710H135L307 298L655 710H678L368 341Z" />
<glyph unicode="&#xa6;" horiz-adv-x="248" d="M139 285V-130H119V285H139ZM139 775V360H119V775H139Z" />
<glyph unicode="&#xa7;" horiz-adv-x="468" d="M346 181Q379 159 379 106Q379 59 359 23T305 -38T234 -75T162 -88Q122 -88 92 -77T41 -47T2 -6L20 7Q50 -30 85 -49T167 -68Q198 -68 231 -57T293 -24T339 29T357 99Q357 137 338 156T289 182T227 190Q166 192 122
220T78 312Q78 336 86 359T106 402T133 435Q117 447 108 472T98 525Q98 571 118 606T171 665T241 702T311 715Q343 715 366 710T405 696T433 672T453 640L433 632Q426 658 406 671T359 690T307 695Q276 695 243 684T182 651T137 598T119 528Q119 473 156 450T252
426Q292 426 326 414T383 376T405 307Q405 283 397 260T376 216T346 181ZM98 312Q98 274 115 254T159 224T217 210T278 203T328 190Q352 208 368 239T385 303Q385 342 364 364T312 396T248 406Q220 406 195 410T150 425Q129 408 114 378T98 312Z" />
<glyph unicode="&#xa8;" horiz-adv-x="231" d="M134 653L150 730H170L154 653H134ZM245 653L261 730H281L265 653H245Z" />
<glyph unicode="&#xa9;" horiz-adv-x="836" d="M429 -7Q351 -7 286 20T171 96T95 211T68 355Q68 432 95 498T171 612T285 688T429 715Q507 715 572 688T687 613T763 498T790 355Q790 277 763 211T687 96T573 20T429 -7ZM430 13Q502 13 563 37T671 107T743 214T769
352Q769 426 744 489T673 598T565 669T430 695Q357 695 295 670T186 598T115 490T89 354Q89 281 114 219T186 111T294 39T430 13ZM436 127Q398 127 360 142T289 186T237 258T217 355Q217 395 229 435T267 510T333 565T428 586Q484 586 531 562T598 487L579 480Q564
517 537 535T480 559T428 566Q379 566 343 547T283 497T249 429T237 355Q237 305 255 267T302 202T366 161T432 147Q461 147 493 158T551 189T589 238L608 233Q603 216 580 191T520 146T436 127Z" />
<glyph unicode="&#xaa;" horiz-adv-x="404" d="M172 351Q129 351 104 376T79 440Q79 477 101 503T161 545T245 560Q274 560 304 555T358 538L366 573Q368 581 369 589T370 604Q370 646 348 667T279 689Q254 689 221 677T156 644L148 663Q224 709 282 709Q334 709
362 684T390 611Q390 602 389 592T386 570L343 393Q342 390 342 389T342 385Q342 375 355 375L351 357Q335 357 328 362T320 381Q320 383 320 385T321 391Q323 399 324 403T326 412Q300 384 259 368T172 351ZM179 370Q212 370 246 383T307 416T338 459L353 518Q328
529 300 535T244 541Q183 541 141 514T99 442Q99 408 118 389T179 370Z" />
<glyph unicode="&#xab;" horiz-adv-x="497" d="M36 268L297 437L292 415L53 259L226 102L221 80L32 250L36 268ZM198 268L460 437L455 415L215 259L388 102L384 80L195 250L198 268Z" />
<glyph unicode="&#xac;" horiz-adv-x="540" d="M478 338L436 140H416L454 318H90L94 338H478Z" />
<glyph unicode="&#xad;" horiz-adv-x="519" d="M59 261L63 281H447L443 261H59Z" />
<glyph unicode="&#xae;" horiz-adv-x="836" d="M429 -7Q351 -7 286 20T171 96T95 211T68 355Q68 432 95 498T171 612T285 688T429 715Q507 715 572 688T687 613T763 498T790 355Q790 277 763 211T687 96T573 20T429 -7ZM429 13Q525 13 602 55T724 175T769 355Q769
428 744 490T673 598T565 669T429 695Q356 695 294 670T186 598T115 490T89 355Q89 282 114 220T185 111T293 39T429 13ZM284 583H472Q510 583 539 563T585 510T602 443Q602 407 587 376T546 326T484 303L601 121H577L461 303H305V121H284V583ZM477 323Q529 323
555 359T582 443Q582 492 552 527T472 562H305V323H477Z" />
<glyph unicode="&#xaf;" horiz-adv-x="366" d="M141 686L145 706H411L407 686H141Z" />
<glyph unicode="&#xb0;" horiz-adv-x="245" d="M180 586Q157 586 142 601T127 640Q127 661 138 680T169 711T210 724Q233 724 248 708T263 667Q263 646 251 628T220 598T180 586ZM185 606Q204 606 223 623T243 664Q243 684 233 692T205 701Q183 701 167 685T150
646Q150 630 159 618T185 606Z" />
<glyph unicode="&#xb1;" horiz-adv-x="483" d="M77 85V105H377V85H77ZM377 365V345H237V195H217V345H77V365H217V515H237V365H377Z" />
<glyph unicode="&#xb2;" horiz-adv-x="354" d="M67 423Q78 473 99 506T151 560T221 596Q247 605 274 614T326 636T365 669T380 719Q380 748 360 770T292 792Q258 792 231 781T184 755T153 729L140 744Q142 747 161 763T214 795T294 811Q350 811 374 785T399 722Q399
686 383 663T340 624T286 600T233 583Q180 565 152 540T112 488T96 442H342L338 423H67Z" />
<glyph unicode="&#xb3;" horiz-adv-x="363" d="M205 418Q146 418 115 445T84 514L101 521Q101 481 129 459T209 437Q247 437 278 450T329 484T349 534Q349 569 316 589T225 609H204L208 627H229Q299 627 337 650T376 717Q376 751 349 772T277 793Q237 793 203
776T152 733L140 745Q154 765 176 780T225 803T281 811Q334 811 365 785T397 720Q397 682 371 656T292 618Q328 611 348 589T369 536Q369 502 346 476T286 434T205 418Z" />
<glyph unicode="&#xb4;" horiz-adv-x="194" d="M143 645L130 657L206 730H239L143 645Z" />
<glyph unicode="&#xb5;" horiz-adv-x="580" d="M136 519H157L95 228Q89 200 86 176T83 131Q83 10 187 10Q235 10 283 33T372 96T439 189L509 519H530L428 40Q427 39 427 37T427 33Q427 20 439 20L434 0Q420 0 414 8T407 30Q407 32 407 35T408 40Q413 63 418 86T428
132Q397 89 357 57T272 8T183 -10Q131 -10 102 16T66 94L1 -212H-19L136 519Z" />
<glyph unicode="&#xb6;" horiz-adv-x="541" d="M64 433Q64 516 104 578T216 675T387 710H579L574 690H508L344 -80H324L394 248H308L238 -80H218L288 248Q181 250 123 299T64 433ZM84 438Q84 380 112 344T187 289T292 268L382 690Q287 690 221 659T119 570T84
438ZM488 690H402L312 268H398L488 690Z" />
<glyph unicode="&#xb7;" horiz-adv-x="155" d="M56 250L74 333H93L76 250H56Z" />
<glyph unicode="&#xb8;" horiz-adv-x="283" d="M56 -164Q34 -164 10 -158T-35 -139L-24 -124Q-4 -134 13 -140T57 -146Q96 -146 119 -125T142 -76Q142 -53 129 -35T90 0L110 9Q133 -9 146 -28T160 -73Q160 -104 146 -124T109 -154T56 -164Z" />
<glyph unicode="&#xb9;" horiz-adv-x="240" d="M250 441L246 422H74L78 441H157L230 785Q222 777 204 766T165 746T128 738L132 757Q147 757 164 765T198 783T224 801T235 811H255L176 441H250Z" />
<glyph unicode="&#xba;" horiz-adv-x="431" d="M223 351Q183 351 153 371T107 424T91 497Q91 539 108 577T155 644T222 691T299 709Q340 709 370 689T417 636T434 562Q434 521 417 483T369 416T302 369T223 351ZM227 370Q273 370 315 396T385 466T412 559Q412
614 380 651T295 689Q250 689 208 663T139 594T112 499Q112 445 144 408T227 370Z" />
<glyph unicode="&#xbb;" horiz-adv-x="497" d="M443 250L182 80L186 102L426 259L253 415L257 437L447 268L443 250ZM281 250L19 80L24 102L264 259L90 415L95 437L284 268L281 250Z" />
<glyph unicode="&#xbc;" horiz-adv-x="712" d="M233 361L229 342H57L61 361H140L213 705Q205 697 187 686T148 666T111 658L115 677Q130 677 147 685T181 703T207 721T218 731H238L159 361H233ZM-35 11L283 339L644 711L657 699L294 325L-22 -1L-35 11ZM544 0L567
110H346L350 127L631 383H645L591 129H643L639 110H587L563 0H544ZM377 129H571L618 348L377 129Z" />
<glyph unicode="&#xbd;" horiz-adv-x="714" d="M337 0Q348 50 369 83T421 137T491 173Q517 182 544 191T596 213T635 246T650 296Q650 325 630 347T562 369Q528 369 501 358T454 332T423 306L410 321Q412 324 431 340T484 372T564 388Q620 388 644 362T669 299Q669
263 653 240T610 201T556 177T503 160Q450 142 422 117T382 65T366 19H612L608 0H337ZM233 361L229 342H57L61 361H140L213 705Q205 697 187 686T148 666T111 658L115 677Q130 677 147 685T181 703T207 721T218 731H238L159 361H233ZM-35 11L283 339L644 711L657
699L294 325L-22 -1L-35 11Z" />
<glyph unicode="&#xbe;" horiz-adv-x="835" d="M188 338Q163 338 135 348T87 379T67 434L84 441Q84 407 112 382T192 357Q230 357 261 370T312 405T332 454Q332 489 299 509T208 529H187L191 547H212Q282 547 320 570T359 637Q359 671 332 692T260 713Q220 713
186 696T135 653L123 665Q137 685 159 700T208 723T264 731Q317 731 348 705T380 640Q380 602 354 576T275 538Q311 531 331 509T352 456Q352 422 329 396T269 354T188 338ZM88 11L406 339L767 711L780 699L417 325L101 -1L88 11ZM667 0L690 110H469L473 127L754
383H768L714 129H766L762 110H710L686 0H667ZM500 129H694L741 348L500 129Z" />
<glyph unicode="&#xbf;" horiz-adv-x="445" d="M284 327Q271 263 253 227T212 172T163 140Q133 125 102 112T43 78T0 23T-17 -66Q-17 -131 21 -162T110 -193Q148 -193 186 -179T258 -138T316 -76L332 -84Q306 -125 268 -154T189 -198T107 -213Q68 -213 35 -196T-17
-147T-37 -66Q-37 -8 -20 28T27 87T90 126T158 159Q181 171 200 187T236 235T264 327H284ZM322 506L304 422H284L302 506H322Z" />
<glyph unicode="&#xc0;" horiz-adv-x="647" d="M406 710H424L566 0H544L493 254H142L-17 0H-39L406 710ZM489 274L409 681L154 274H489ZM353 921H385L429 847L413 836L353 921Z" />
<glyph unicode="&#xc1;" horiz-adv-x="647" d="M406 710H424L566 0H544L493 254H142L-17 0H-39L406 710ZM489 274L409 681L154 274H489ZM437 836L424 848L500 921H533L437 836Z" />
<glyph unicode="&#xc2;" horiz-adv-x="647" d="M406 710H424L566 0H544L493 254H142L-17 0H-39L406 710ZM489 274L409 681L154 274H489ZM344 818L448 892H464L537 818L519 806L451 869L357 806L344 818Z" />
<glyph unicode="&#xc3;" horiz-adv-x="647" d="M406 710H424L566 0H544L493 254H142L-17 0H-39L406 710ZM489 274L409 681L154 274H489ZM501 854Q473 854 456 863T424 882T390 892Q370 892 357 882T338 859T331 844H312Q312 846 316 856T330 879T356 901T396 911Q414
911 427 906T451 892T476 879T507 873Q533 873 547 884T567 907T573 921H592Q591 918 587 907T572 884T544 863T501 854Z" />
<glyph unicode="&#xc4;" horiz-adv-x="647" d="M406 710H424L566 0H544L493 254H142L-17 0H-39L406 710ZM489 274L409 681L154 274H489ZM378 844L394 921H414L398 844H378ZM489 844L505 921H525L509 844H489Z" />
<glyph unicode="&#xc5;" horiz-adv-x="647" d="M406 710H424L566 0H544L493 254H142L-17 0H-39L406 710ZM489 274L409 681L154 274H489ZM392 853Q392 881 413 901T460 921Q480 921 491 908T503 875Q503 847 482 827T435 807Q416 807 404 820T392 853ZM456 905Q438
905 423 892T408 856Q408 842 416 833T439 823Q455 823 471 837T488 872Q488 887 479 896T456 905Z" />
<glyph unicode="&#xc6;" horiz-adv-x="921" d="M511 710H951L946 690H532L465 373H828L823 353H460L390 20H812L808 0H365L419 254H153L-59 0H-84L511 710ZM424 274L509 678L169 274H424Z" />
<glyph unicode="&#xc7;" horiz-adv-x="663" d="M307 -6Q246 -6 199 19T119 86T69 180T52 288Q52 348 71 408T126 524T211 621T322 689T452 714Q544 714 597 671T667 559L647 553Q632 605 603 636T535 680T451 694Q371 694 302 658T182 561T101 429T72 284Q72 213
100 151T182 52T310 14Q354 14 402 29T496 78T580 164L598 159Q564 105 515 68T412 13T307 -6ZM233 -164Q211 -164 187 -158T142 -139L153 -124Q173 -134 190 -140T234 -146Q273 -146 296 -125T319 -76Q319 -53 306 -35T267 0L287 9Q310 -9 323 -28T337 -73Q337
-104 323 -124T286 -154T233 -164Z" />
<glyph unicode="&#xc8;" horiz-adv-x="588" d="M184 710H618L614 690H200L132 373H495L491 353H128L57 20H480L476 0H33L184 710ZM328 921H360L404 847L388 836L328 921Z" />
<glyph unicode="&#xc9;" horiz-adv-x="588" d="M184 710H618L614 690H200L132 373H495L491 353H128L57 20H480L476 0H33L184 710ZM412 836L399 848L475 921H508L412 836Z" />
<glyph unicode="&#xca;" horiz-adv-x="588" d="M184 710H618L614 690H200L132 373H495L491 353H128L57 20H480L476 0H33L184 710ZM319 818L423 892H439L512 818L494 806L426 869L332 806L319 818Z" />
<glyph unicode="&#xcb;" horiz-adv-x="588" d="M184 710H618L614 690H200L132 373H495L491 353H128L57 20H480L476 0H33L184 710ZM353 844L369 921H389L373 844H353ZM464 844L480 921H500L484 844H464Z" />
<glyph unicode="&#xcc;" horiz-adv-x="214" d="M184 709H204L53 0H33L184 709ZM131 918H163L207 844L191 833L131 918Z" />
<glyph unicode="&#xcd;" horiz-adv-x="214" d="M184 709H204L53 0H33L184 709ZM215 833L202 845L278 918H311L215 833Z" />
<glyph unicode="&#xce;" horiz-adv-x="214" d="M184 709H204L53 0H33L184 709ZM122 815L226 889H242L315 815L297 803L229 866L135 803L122 815Z" />
<glyph unicode="&#xcf;" horiz-adv-x="214" d="M184 709H204L53 0H33L184 709ZM156 841L172 918H192L176 841H156ZM267 841L283 918H303L287 841H267Z" />
<glyph unicode="&#xd0;" horiz-adv-x="691" d="M51 367H320L316 347H47L51 367ZM191 710H408Q495 710 550 674T633 577T660 440Q660 346 630 266T546 126T418 33T257 0H40L191 710ZM261 20Q350 20 420 53T539 145T614 278T640 435Q640 510 614 567T535 657T404
690H207L64 20H261Z" />
<glyph unicode="&#xd1;" horiz-adv-x="743" d="M184 710H199L569 29L713 709H733L582 0H560L196 671L53 0H33L184 710ZM555 851Q527 851 510 860T478 879T444 889Q424 889 411 879T392 856T385 841H366Q366 843 370 853T384 876T410 898T450 908Q468 908 481 903T505
889T530 876T561 870Q587 870 601 881T621 904T627 918H646Q645 915 641 904T626 881T598 860T555 851Z" />
<glyph unicode="&#xd2;" horiz-adv-x="726" d="M305 -5Q238 -5 190 19T112 84T67 176T52 284Q52 353 72 417T128 535T214 630T321 692T443 715Q510 715 558 691T637 625T682 532T697 424Q697 355 677 292T621 174T535 80T427 18T305 -5ZM308 15Q386 15 453 49T571
142T649 273T677 424Q677 495 653 557T576 657T441 695Q363 695 296 661T179 569T100 437T72 285Q72 214 96 153T173 53T308 15ZM398 918H430L474 844L458 833L398 918Z" />
<glyph unicode="&#xd3;" horiz-adv-x="726" d="M305 -5Q238 -5 190 19T112 84T67 176T52 284Q52 353 72 417T128 535T214 630T321 692T443 715Q510 715 558 691T637 625T682 532T697 424Q697 355 677 292T621 174T535 80T427 18T305 -5ZM308 15Q386 15 453 49T571
142T649 273T677 424Q677 495 653 557T576 657T441 695Q363 695 296 661T179 569T100 437T72 285Q72 214 96 153T173 53T308 15ZM482 833L469 845L545 918H578L482 833Z" />
<glyph unicode="&#xd4;" horiz-adv-x="726" d="M305 -5Q238 -5 190 19T112 84T67 176T52 284Q52 353 72 417T128 535T214 630T321 692T443 715Q510 715 558 691T637 625T682 532T697 424Q697 355 677 292T621 174T535 80T427 18T305 -5ZM308 15Q386 15 453 49T571
142T649 273T677 424Q677 495 653 557T576 657T441 695Q363 695 296 661T179 569T100 437T72 285Q72 214 96 153T173 53T308 15ZM389 815L493 889H509L582 815L564 803L496 866L402 803L389 815Z" />
<glyph unicode="&#xd5;" horiz-adv-x="726" d="M305 -5Q238 -5 190 19T112 84T67 176T52 284Q52 353 72 417T128 535T214 630T321 692T443 715Q510 715 558 691T637 625T682 532T697 424Q697 355 677 292T621 174T535 80T427 18T305 -5ZM308 15Q386 15 453 49T571
142T649 273T677 424Q677 495 653 557T576 657T441 695Q363 695 296 661T179 569T100 437T72 285Q72 214 96 153T173 53T308 15ZM546 851Q518 851 501 860T469 879T435 889Q415 889 402 879T383 856T376 841H357Q357 843 361 853T375 876T401 898T441 908Q459 908
472 903T496 889T521 876T552 870Q578 870 592 881T612 904T618 918H637Q636 915 632 904T617 881T589 860T546 851Z" />
<glyph unicode="&#xd6;" horiz-adv-x="726" d="M305 -5Q238 -5 190 19T112 84T67 176T52 284Q52 353 72 417T128 535T214 630T321 692T443 715Q510 715 558 691T637 625T682 532T697 424Q697 355 677 292T621 174T535 80T427 18T305 -5ZM308 15Q386 15 453 49T571
142T649 273T677 424Q677 495 653 557T576 657T441 695Q363 695 296 661T179 569T100 437T72 285Q72 214 96 153T173 53T308 15ZM423 841L439 918H459L443 841H423ZM534 841L550 918H570L554 841H534Z" />
<glyph unicode="&#xd7;" horiz-adv-x="460" d="M372 135L357 121L222 256L87 121L73 136L207 270L72 406L87 420L222 285L358 421L372 406L236 270L372 135Z" />
<glyph unicode="&#xd8;" horiz-adv-x="726" d="M305 -5Q238 -5 190 19T112 84T67 176T52 284Q52 353 72 417T128 535T214 630T321 692T443 715Q510 715 558 691T637 625T682 532T697 424Q697 355 677 292T621 174T535 80T427 18T305 -5ZM308 15Q386 15 453 49T571
142T649 273T677 424Q677 495 653 557T576 657T441 695Q363 695 296 661T179 569T100 437T72 285Q72 214 96 153T173 53T308 15ZM680 710L96 0H71L655 710H680Z" />
<glyph unicode="&#xd9;" horiz-adv-x="723" d="M298 -5Q217 -5 170 26T103 110T83 225Q83 257 87 289T98 355L173 710H193L118 355Q111 323 107 292T103 228Q103 169 120 121T181 44T298 15Q374 15 431 44T527 123T592 233T630 355L705 710H725L650 355Q635 283
607 218T537 103T435 24T298 -5ZM383 918H415L459 844L443 833L383 918Z" />
<glyph unicode="&#xda;" horiz-adv-x="723" d="M298 -5Q217 -5 170 26T103 110T83 225Q83 257 87 289T98 355L173 710H193L118 355Q111 323 107 292T103 228Q103 169 120 121T181 44T298 15Q374 15 431 44T527 123T592 233T630 355L705 710H725L650 355Q635 283
607 218T537 103T435 24T298 -5ZM467 833L454 845L530 918H563L467 833Z" />
<glyph unicode="&#xdb;" horiz-adv-x="723" d="M298 -5Q217 -5 170 26T103 110T83 225Q83 257 87 289T98 355L173 710H193L118 355Q111 323 107 292T103 228Q103 169 120 121T181 44T298 15Q374 15 431 44T527 123T592 233T630 355L705 710H725L650 355Q635 283
607 218T537 103T435 24T298 -5ZM374 815L478 889H494L567 815L549 803L481 866L387 803L374 815Z" />
<glyph unicode="&#xdc;" horiz-adv-x="723" d="M298 -5Q217 -5 170 26T103 110T83 225Q83 257 87 289T98 355L173 710H193L118 355Q111 323 107 292T103 228Q103 169 120 121T181 44T298 15Q374 15 431 44T527 123T592 233T630 355L705 710H725L650 355Q635 283
607 218T537 103T435 24T298 -5ZM408 841L424 918H444L428 841H408ZM519 841L535 918H555L539 841H519Z" />
<glyph unicode="&#xdd;" horiz-adv-x="594" d="M277 277L97 710H120L292 298L640 710H663L297 275L238 0H218L277 277ZM401 833L388 845L464 918H497L401 833Z" />
<glyph unicode="&#xde;" horiz-adv-x="574" d="M184 710H204L172 560H408Q455 560 488 535T539 469T557 383Q557 337 539 292T488 210T413 151T323 129H80L53 0H33L184 710ZM327 149Q371 149 409 170T476 225T521 299T537 380Q537 423 521 459T474 517T403 540H168L85
149H327Z" />
<glyph unicode="&#xdf;" horiz-adv-x="523" d="M159 13Q248 15 311 42T407 120T441 240Q441 309 399 351T282 393H266L270 413H285Q333 413 373 435T439 494T464 576Q464 627 430 660T339 694Q292 694 253 671T185 607T145 509L37 0H17L125 509Q138 571 170 617T247
688T344 714Q408 714 446 677T485 583Q485 542 464 504T408 439T335 404Q397 390 429 348T462 245Q462 189 442 144T382 66T286 15T155 -6L159 13Z" />
<glyph unicode="&#xe0;" horiz-adv-x="580" d="M216 -10Q159 -10 118 21T54 103T31 210Q31 270 55 326T120 428T213 500T321 527Q391 527 434 489T497 398L523 519H544L442 44Q441 42 441 39T440 32Q440 20 452 20L448 0Q446 0 444 0T439 1Q429 4 425 11T420 29Q420
32 421 37T425 57T435 108Q393 56 334 23T216 -10ZM218 10Q250 10 286 23T356 58T414 109T448 169L488 356Q483 396 461 430T402 485T318 507Q266 507 218 481T133 411T73 316T51 210Q51 157 73 112T132 38T218 10ZM283 730H315L359 656L343 645L283 730Z" />
<glyph unicode="&#xe1;" horiz-adv-x="580" d="M216 -10Q159 -10 118 21T54 103T31 210Q31 270 55 326T120 428T213 500T321 527Q391 527 434 489T497 398L523 519H544L442 44Q441 42 441 39T440 32Q440 20 452 20L448 0Q446 0 444 0T439 1Q429 4 425 11T420 29Q420
32 421 37T425 57T435 108Q393 56 334 23T216 -10ZM218 10Q250 10 286 23T356 58T414 109T448 169L488 356Q483 396 461 430T402 485T318 507Q266 507 218 481T133 411T73 316T51 210Q51 157 73 112T132 38T218 10ZM367 645L354 657L430 730H463L367 645Z" />
<glyph unicode="&#xe2;" horiz-adv-x="580" d="M216 -10Q159 -10 118 21T54 103T31 210Q31 270 55 326T120 428T213 500T321 527Q391 527 434 489T497 398L523 519H544L442 44Q441 42 441 39T440 32Q440 20 452 20L448 0Q446 0 444 0T439 1Q429 4 425 11T420 29Q420
32 421 37T425 57T435 108Q393 56 334 23T216 -10ZM218 10Q250 10 286 23T356 58T414 109T448 169L488 356Q483 396 461 430T402 485T318 507Q266 507 218 481T133 411T73 316T51 210Q51 157 73 112T132 38T218 10ZM274 627L378 701H394L467 627L449 615L381 678L287
615L274 627Z" />
<glyph unicode="&#xe3;" horiz-adv-x="580" d="M216 -10Q159 -10 118 21T54 103T31 210Q31 270 55 326T120 428T213 500T321 527Q391 527 434 489T497 398L523 519H544L442 44Q441 42 441 39T440 32Q440 20 452 20L448 0Q446 0 444 0T439 1Q429 4 425 11T420 29Q420
32 421 37T425 57T435 108Q393 56 334 23T216 -10ZM218 10Q250 10 286 23T356 58T414 109T448 169L488 356Q483 396 461 430T402 485T318 507Q266 507 218 481T133 411T73 316T51 210Q51 157 73 112T132 38T218 10ZM431 663Q403 663 386 672T354 691T320 701Q300
701 287 691T268 668T261 653H242Q242 655 246 665T260 688T286 710T326 720Q344 720 357 715T381 701T406 688T437 682Q463 682 477 693T497 716T503 730H522Q521 727 517 716T502 693T474 672T431 663Z" />
<glyph unicode="&#xe4;" horiz-adv-x="580" d="M216 -10Q159 -10 118 21T54 103T31 210Q31 270 55 326T120 428T213 500T321 527Q391 527 434 489T497 398L523 519H544L442 44Q441 42 441 39T440 32Q440 20 452 20L448 0Q446 0 444 0T439 1Q429 4 425 11T420 29Q420
32 421 37T425 57T435 108Q393 56 334 23T216 -10ZM218 10Q250 10 286 23T356 58T414 109T448 169L488 356Q483 396 461 430T402 485T318 507Q266 507 218 481T133 411T73 316T51 210Q51 157 73 112T132 38T218 10ZM308 653L324 730H344L328 653H308ZM419 653L435
730H455L439 653H419Z" />
<glyph unicode="&#xe5;" horiz-adv-x="580" d="M216 -10Q159 -10 118 21T54 103T31 210Q31 270 55 326T120 428T213 500T321 527Q391 527 434 489T497 398L523 519H544L442 44Q441 42 441 39T440 32Q440 20 452 20L448 0Q446 0 444 0T439 1Q429 4 425 11T420 29Q420
32 421 37T425 57T435 108Q393 56 334 23T216 -10ZM218 10Q250 10 286 23T356 58T414 109T448 169L488 356Q483 396 461 430T402 485T318 507Q266 507 218 481T133 411T73 316T51 210Q51 157 73 112T132 38T218 10ZM322 662Q322 690 343 710T390 730Q410 730 421
717T433 684Q433 656 412 636T365 616Q346 616 334 629T322 662ZM386 714Q368 714 353 701T338 665Q338 651 346 642T369 632Q385 632 401 646T418 681Q418 696 409 705T386 714Z" />
<glyph unicode="&#xe6;" horiz-adv-x="883" d="M137 -10Q69 -10 35 29T1 120Q1 173 33 213T119 275T241 297Q275 297 309 292T373 277Q380 303 391 328T416 376Q416 436 383 471T291 507Q252 507 208 491T115 443L107 459Q216 527 295 527Q353 527 391 496T435
403Q478 459 537 493T659 527Q714 527 757 501T825 430T850 328Q850 312 848 288T837 248H387Q386 237 385 227T384 206Q384 150 405 106T465 36T555 10Q612 10 667 40T754 119L772 114Q751 79 715 51T636 6T550 -10Q489 -10 444 23T378 111Q349 68 306 41T217
2T137 -10ZM143 10Q175 10 210 19T279 46T336 86T370 137Q366 151 364 167T362 199Q362 213 363 227T368 256Q338 267 305 272T239 277Q176 277 127 258T49 205T21 124Q21 95 33 69T73 27T143 10ZM821 268Q825 282 826 296T828 325Q828 372 809 413T752 481T656
507Q598 507 544 476T450 391T391 268H821Z" />
<glyph unicode="&#xe7;" horiz-adv-x="514" d="M219 -10Q163 -10 121 19T55 99T31 210Q31 275 56 332T123 433T220 502T332 527Q394 527 437 497T493 411L471 404Q458 452 422 479T335 507Q281 507 230 484T139 420T75 326T51 214Q51 158 72 112T132 38T220 10Q259
10 299 25T371 66T417 119L436 113Q418 78 383 50T305 6T219 -10ZM178 -164Q156 -164 132 -158T87 -139L98 -124Q118 -134 135 -140T179 -146Q218 -146 241 -125T264 -76Q264 -53 251 -35T212 0L232 9Q255 -9 268 -28T282 -73Q282 -104 268 -124T231 -154T178 -164Z"
/>
<glyph unicode="&#xe8;" horiz-adv-x="527" d="M230 -10Q171 -10 128 20T60 100T34 210Q32 269 52 325T110 427T200 500T315 527Q360 527 397 512T458 465T482 385Q485 306 421 277T225 248Q184 248 141 249T43 255L51 274Q107 271 148 270T228 268Q317 268 368
280T441 318T461 383Q460 428 437 455T380 494T311 507Q256 507 209 481T126 413T73 321T55 221Q57 161 78 113T140 38T237 10Q305 10 353 42T430 128L451 122Q430 82 399 53T325 7T230 -10ZM257 730H289L333 656L317 645L257 730Z" />
<glyph unicode="&#xe9;" horiz-adv-x="527" d="M230 -10Q171 -10 128 20T60 100T34 210Q32 269 52 325T110 427T200 500T315 527Q360 527 397 512T458 465T482 385Q485 306 421 277T225 248Q184 248 141 249T43 255L51 274Q107 271 148 270T228 268Q317 268 368
280T441 318T461 383Q460 428 437 455T380 494T311 507Q256 507 209 481T126 413T73 321T55 221Q57 161 78 113T140 38T237 10Q305 10 353 42T430 128L451 122Q430 82 399 53T325 7T230 -10ZM341 645L328 657L404 730H437L341 645Z" />
<glyph unicode="&#xea;" horiz-adv-x="527" d="M230 -10Q171 -10 128 20T60 100T34 210Q32 269 52 325T110 427T200 500T315 527Q360 527 397 512T458 465T482 385Q485 306 421 277T225 248Q184 248 141 249T43 255L51 274Q107 271 148 270T228 268Q317 268 368
280T441 318T461 383Q460 428 437 455T380 494T311 507Q256 507 209 481T126 413T73 321T55 221Q57 161 78 113T140 38T237 10Q305 10 353 42T430 128L451 122Q430 82 399 53T325 7T230 -10ZM248 627L352 701H368L441 627L423 615L355 678L261 615L248 627Z" />
<glyph unicode="&#xeb;" horiz-adv-x="527" d="M230 -10Q171 -10 128 20T60 100T34 210Q32 269 52 325T110 427T200 500T315 527Q360 527 397 512T458 465T482 385Q485 306 421 277T225 248Q184 248 141 249T43 255L51 274Q107 271 148 270T228 268Q317 268 368
280T441 318T461 383Q460 428 437 455T380 494T311 507Q256 507 209 481T126 413T73 321T55 221Q57 161 78 113T140 38T237 10Q305 10 353 42T430 128L451 122Q430 82 399 53T325 7T230 -10ZM282 653L298 730H318L302 653H282ZM393 653L409 730H429L413 653H393Z"
/>
<glyph unicode="&#xec;" horiz-adv-x="182" d="M127 519H147L37 0H17L127 519ZM350 730H382L426 656L410 645L350 730Z" />
<glyph unicode="&#xed;" horiz-adv-x="182" d="M127 519H147L37 0H17L127 519ZM160 645L147 657L223 730H256L160 645Z" />
<glyph unicode="&#xee;" horiz-adv-x="182" d="M127 519H147L37 0H17L127 519ZM324 656L428 730H444L517 656L499 644L431 707L337 644L324 656Z" />
<glyph unicode="&#xef;" horiz-adv-x="182" d="M127 519H147L37 0H17L127 519ZM357 653L373 730H393L377 653H357ZM468 653L484 730H504L488 653H468Z" />
<glyph unicode="&#xf0;" horiz-adv-x="568" d="M524 369Q524 281 497 211T425 92T326 16T216 -10Q160 -10 117 17T51 89T27 190Q27 247 52 298T119 389T213 452T319 475Q393 475 442 435T503 330Q505 345 505 359T506 390Q506 445 489 501T428 614T301 730H330Q405
676 447 616T507 493T524 369ZM47 192Q47 142 69 101T129 35T219 10Q269 10 317 32T404 93T466 180T490 280Q490 329 468 368T406 431T315 455Q266 455 218 434T132 376T70 292T47 192ZM534 699L425 633L420 630L282 547L275 561L410 642L415 645L527 713L534 699Z"
/>
<glyph unicode="&#xf1;" horiz-adv-x="540" d="M127 519H147L119 385Q148 427 189 459T276 509T366 527Q403 527 427 514T464 472T476 401Q476 377 473 349T462 289L401 0H381L442 289Q449 321 452 347T455 396Q455 453 432 480T362 507Q315 507 266 484T174 420T107
328L37 0H17L127 519ZM414 663Q386 663 369 672T337 691T303 701Q283 701 270 691T251 668T244 653H225Q225 655 229 665T243 688T269 710T309 720Q327 720 340 715T364 701T389 688T420 682Q446 682 460 693T480 716T486 730H505Q504 727 500 716T485 693T457
672T414 663Z" />
<glyph unicode="&#xf2;" horiz-adv-x="561" d="M219 -10Q156 -10 114 19T51 97T30 205Q30 273 54 331T121 434T216 502T325 527Q388 527 429 498T492 419T513 310Q513 243 489 185T424 83T329 15T219 -10ZM222 10Q274 10 322 32T409 95T470 190T493 306Q493 361
474 406T417 479T321 507Q269 507 221 484T134 420T73 325T50 208Q50 153 69 108T126 37T222 10ZM264 730H296L340 656L324 645L264 730Z" />
<glyph unicode="&#xf3;" horiz-adv-x="561" d="M219 -10Q156 -10 114 19T51 97T30 205Q30 273 54 331T121 434T216 502T325 527Q388 527 429 498T492 419T513 310Q513 243 489 185T424 83T329 15T219 -10ZM222 10Q274 10 322 32T409 95T470 190T493 306Q493 361
474 406T417 479T321 507Q269 507 221 484T134 420T73 325T50 208Q50 153 69 108T126 37T222 10ZM348 645L335 657L411 730H444L348 645Z" />
<glyph unicode="&#xf4;" horiz-adv-x="561" d="M219 -10Q156 -10 114 19T51 97T30 205Q30 273 54 331T121 434T216 502T325 527Q388 527 429 498T492 419T513 310Q513 243 489 185T424 83T329 15T219 -10ZM222 10Q274 10 322 32T409 95T470 190T493 306Q493 361
474 406T417 479T321 507Q269 507 221 484T134 420T73 325T50 208Q50 153 69 108T126 37T222 10ZM255 627L359 701H375L448 627L430 615L362 678L268 615L255 627Z" />
<glyph unicode="&#xf5;" horiz-adv-x="561" d="M219 -10Q156 -10 114 19T51 97T30 205Q30 273 54 331T121 434T216 502T325 527Q388 527 429 498T492 419T513 310Q513 243 489 185T424 83T329 15T219 -10ZM222 10Q274 10 322 32T409 95T470 190T493 306Q493 361
474 406T417 479T321 507Q269 507 221 484T134 420T73 325T50 208Q50 153 69 108T126 37T222 10ZM412 663Q384 663 367 672T335 691T301 701Q281 701 268 691T249 668T242 653H223Q223 655 227 665T241 688T267 710T307 720Q325 720 338 715T362 701T387 688T418
682Q444 682 458 693T478 716T484 730H503Q502 727 498 716T483 693T455 672T412 663Z" />
<glyph unicode="&#xf6;" horiz-adv-x="561" d="M219 -10Q156 -10 114 19T51 97T30 205Q30 273 54 331T121 434T216 502T325 527Q388 527 429 498T492 419T513 310Q513 243 489 185T424 83T329 15T219 -10ZM222 10Q274 10 322 32T409 95T470 190T493 306Q493 361
474 406T417 479T321 507Q269 507 221 484T134 420T73 325T50 208Q50 153 69 108T126 37T222 10ZM289 653L305 730H325L309 653H289ZM400 653L416 730H436L420 653H400Z" />
<glyph unicode="&#xf7;" horiz-adv-x="548" d="M257 385V449H277V385H257ZM257 92V156H277V92H257ZM66 261V281H469V261H66Z" />
<glyph unicode="&#xf8;" horiz-adv-x="561" d="M215 -10Q159 -10 118 19T53 98T30 207Q30 270 56 328T125 430T221 501T329 527Q384 527 425 498T489 419T513 308Q513 246 488 189T420 87T324 16T215 -10ZM218 10Q268 10 317 34T406 99T469 194T493 305Q493 361
472 406T413 479T325 507Q275 507 226 483T137 417T74 322T50 209Q50 154 71 109T130 37T218 10ZM95 51L109 38L79 0H55L95 51ZM96 51L435 479L450 466L109 38L96 51ZM435 479L467 519H492L450 466L435 479Z" />
<glyph unicode="&#xf9;" horiz-adv-x="551" d="M167 -10Q47 -10 47 129Q47 151 50 175T59 228L121 519H141L79 228Q67 173 67 131Q67 10 172 10Q220 10 268 33T357 96T424 189L494 519H514L418 67Q416 56 414 46T411 34Q411 20 424 20L419 0Q415 0 412 0T407 2Q400
5 396 12T392 29Q392 31 393 36T398 63T412 132Q366 67 300 29T167 -10ZM269 730H301L345 656L329 645L269 730Z" />
<glyph unicode="&#xfa;" horiz-adv-x="551" d="M167 -10Q47 -10 47 129Q47 151 50 175T59 228L121 519H141L79 228Q67 173 67 131Q67 10 172 10Q220 10 268 33T357 96T424 189L494 519H514L418 67Q416 56 414 46T411 34Q411 20 424 20L419 0Q415 0 412 0T407 2Q400
5 396 12T392 29Q392 31 393 36T398 63T412 132Q366 67 300 29T167 -10ZM353 645L340 657L416 730H449L353 645Z" />
<glyph unicode="&#xfb;" horiz-adv-x="551" d="M167 -10Q47 -10 47 129Q47 151 50 175T59 228L121 519H141L79 228Q67 173 67 131Q67 10 172 10Q220 10 268 33T357 96T424 189L494 519H514L418 67Q416 56 414 46T411 34Q411 20 424 20L419 0Q415 0 412 0T407 2Q400
5 396 12T392 29Q392 31 393 36T398 63T412 132Q366 67 300 29T167 -10ZM260 627L364 701H380L453 627L435 615L367 678L273 615L260 627Z" />
<glyph unicode="&#xfc;" horiz-adv-x="551" d="M167 -10Q47 -10 47 129Q47 151 50 175T59 228L121 519H141L79 228Q67 173 67 131Q67 10 172 10Q220 10 268 33T357 96T424 189L494 519H514L418 67Q416 56 414 46T411 34Q411 20 424 20L419 0Q415 0 412 0T407 2Q400
5 396 12T392 29Q392 31 393 36T398 63T412 132Q366 67 300 29T167 -10ZM294 653L310 730H330L314 653H294ZM405 653L421 730H441L425 653H405Z" />
<glyph unicode="&#xfd;" horiz-adv-x="446" d="M-37 -207Q4 -199 29 -183T77 -139T130 -63L171 0L52 519H74L186 25L244 117Q291 192 323 247T378 347T416 433T445 519H466Q453 471 438 429T400 342T343 240T259 103L177 -26Q141 -82 115 -118T67 -176T20 -208T-35
-224L-37 -207ZM314 645L301 657L377 730H410L314 645Z" />
<glyph unicode="&#xfe;" horiz-adv-x="577" d="M-28 -213L168 710H188L124 409Q166 461 226 494T342 527Q401 527 442 496T506 414T528 306Q528 247 505 191T442 89T349 17T236 -10Q171 -10 127 28T63 119L-8 -213H-28ZM240 10Q295 10 343 36T429 105T487 200T508
304Q508 358 487 404T428 479T337 507Q309 507 274 494T204 459T145 408T111 348L71 161Q80 119 103 85T162 31T240 10Z" />
<glyph unicode="&#xff;" horiz-adv-x="446" d="M-37 -207Q4 -199 29 -183T77 -139T130 -63L171 0L52 519H74L186 25L244 117Q291 192 323 247T378 347T416 433T445 519H466Q453 471 438 429T400 342T343 240T259 103L177 -26Q141 -82 115 -118T67 -176T20 -208T-35
-224L-37 -207ZM255 653L271 730H291L275 653H255ZM366 653L382 730H402L386 653H366Z" />
<glyph unicode="&#x2013;" horiz-adv-x="519" d="M59 261L63 281H447L443 261H59Z" />
<glyph unicode="&#x2014;" horiz-adv-x="838" d="M59 261L63 281H766L762 261H59Z" />
<glyph unicode="&#x2018;" horiz-adv-x="162" d="M183 730L155 644H164L149 570H123L139 644L170 730H183Z" />
<glyph unicode="&#x2019;" horiz-adv-x="159" d="M124 570L152 656H143L158 730H184L168 656L137 570H124Z" />
<glyph unicode="&#x201a;" horiz-adv-x="257" d="M33 -76L59 0H50L66 74H91L75 0L47 -76H33Z" />
<glyph unicode="&#x201c;" horiz-adv-x="238" d="M183 730L155 644H164L149 570H123L139 644L170 730H183ZM259 730L231 644H240L225 570H199L215 644L246 730H259Z" />
<glyph unicode="&#x201d;" horiz-adv-x="235" d="M200 570L228 656H219L234 730H260L244 656L213 570H200ZM124 570L152 656H143L158 730H184L168 656L137 570H124Z" />
<glyph unicode="&#x201e;" horiz-adv-x="325" d="M33 -76L59 0H50L66 74H91L75 0L47 -76H33ZM101 -76L126 0H117L133 74H159L143 0L114 -76H101Z" />
<glyph unicode="&#x2022;" horiz-adv-x="331" d="M250 357Q250 332 237 311T202 277T157 264Q131 264 114 282T97 329Q97 354 111 374T146 408T191 421Q218 421 234 402T250 357Z" />
<glyph unicode="&#x2039;" horiz-adv-x="334" d="M36 268L297 437L292 415L53 259L226 102L221 80L32 250L36 268Z" />
<glyph unicode="&#x203a;" horiz-adv-x="334" d="M281 250L19 80L24 102L264 259L90 415L95 437L284 268L281 250Z" />
</font>
</defs>
</svg>
